#TITLE:V;
#SUBTITLE:(Rasen Style);
#ARTIST:dj TAKA;
#TITLETRANSLIT:;
#SUBTITLETRANSLIT:;
#ARTISTTRANSLIT:;
#CREDIT:;
#BANNER:V (Rasen Style)_bnr.png;
#BACKGROUND:V (Rasen Style)_bg.png;
#LYRICSPATH:;
#CDTITLE:!kilgacdtitle.png;
#MUSIC:V (Rasen Style) - TAKA.mp3;
#OFFSET:1.525;
#SAMPLESTART:129.520;
#SAMPLELENGTH:12.920;
#SELECTABLE:YES;
#BPMS:0.000=150.000;
#STOPS:;
#BGCHANGES:;
// cache tags:
#FIRSTBEAT:4.000;
#LASTBEAT:416.000;
#SONGFILENAME:Songs/Music V.I.P ^_^/V (Rasen Style) [kilga]/V (Rasen Style).sm;
#HASMUSIC:1;
#HASBANNER:1;
#MUSICLENGTH:167.188;
// end cache tags

//---------------dance-single - ----------------
#NOTES:
     dance-single:
     :
     Challenge:
     11:
     1.000,1.000,1.000,0.084,1.000,1404.000,236.000,14.000,0.000,0.000:  // measure 1
0000
0000
0000
0000
,  // measure 2
0001
0000
0010
0000
0100
0000
1000
0000
0100
0000
0010
0000
0001
0000
0010
0000
0100
0000
1000
0000
0100
0000
0001
0000
1000
0001
1000
0001
1000
0001
1000
0001
,  // measure 3
1100
0001
0010
0001
0010
0100
1000
0100
1000
0100
0001
1000
0001
1000
0001
0010
,  // measure 4
1100
0010
0001
1000
0100
0010
0100
1000
0001
0100
0010
0100
0001
0010
0100
1000
,  // measure 5
0101
1000
0100
0010
0100
0001
1000
0001
0010
0100
1000
0010
0100
1000
0100
0010
,  // measure 6
0101
0010
0001
0010
0100
0001
0100
1000
0100
1000
0100
0010
0001
0010
0100
1000
,  // measure 7
0011
1000
0100
1000
0100
0010
0001
0010
0100
1000
0001
0010
0001
1000
0100
1000
,  // measure 8
0110
0001
0010
0100
0010
0001
0010
0100
1000
0010
0001
0100
1001
0000
0110
0000
,  // measure 9
1001
0010
0100
0001
0010
0100
1000
0100
0001
0010
1000
0100
1000
0100
0001
1000
,  // measure 10
0011
1000
0100
1000
0010
1000
0100
0010
0001
1000
0001
0100
0001
0010
0001
0100
,  // measure 11
1010
0100
1000
0001
0010
0100
0010
0001
1100
0001
1000
0001
0010
0001
0100
1000
,  // measure 12
0101
0010
0001
0010
0100
1000
0100
1000
0011
0100
0010
0100
1000
0001
0010
0100
,  // measure 13
1001
0010
0001
0010
0001
1000
0100
1000
0110
0001
0010
0100
1000
0001
0010
0100
,  // measure 14
0011
1000
0010
1000
0001
0100
0001
1000
0101
1000
0010
0100
0001
0010
0100
0001
,  // measure 15
1100
0010
0001
0010
0100
1000
0100
0001
1010
0100
0001
0010
1000
0100
1000
0001
,  // measure 16
0110
0001
0010
0100
0010
0001
1000
0100
1001
0010
0100
1000
0001
0010
1000
0100
,  // measure 17
1010
0001
0100
0001
0100
0001
0010
1000
0011
1000
0100
1000
0010
0001
1000
0010
,  // measure 18
0101
1000
0001
1000
0001
1000
0001
0010
1100
0010
0100
0010
0100
0010
0100
0010
,  // measure 19
1001
0010
0010
0010
,  // measure 20
0001
1000
0100
0010
0001
1000
0100
0010
0001
1000
0100
0010
0001
1000
0100
0010
,  // measure 21
0001
1000
0100
1000
0011
1000
0100
1000
0011
1000
0100
1000
0011
1000
0100
1000
,  // measure 22
0001
0010
0100
1000
0001
0010
0100
1000
0001
0010
0100
1000
0001
0010
0100
1000
,  // measure 23
0010
0100
0001
1000
0010
0100
0001
1000
0010
0100
0001
1000
0001
1000
0001
0010
,  // measure 24
1001
0100
0100
0100
,  // measure 25
0010
0001
0010
0100
1000
0100
0010
0001
0010
0100
1000
0100
0010
0001
0010
0100
,  // measure 26
1000
0100
0001
0100
1000
0100
0001
0100
1000
0100
0001
0100
1000
0100
0001
0100
,  // measure 27
1000
0100
0010
0001
1000
0100
0010
0001
1000
0100
0010
0001
1000
0100
0010
0001
,  // measure 28
1000
0010
0100
0001
1000
0010
0100
0001
1000
0010
0100
0001
0010
0100
0001
0010
,  // measure 29
1001
0010
0100
0010
,  // measure 30
0100
0001
0010
1000
0100
0001
0010
1000
0100
0001
0010
1000
0100
0001
0010
1000
,  // measure 31
0101
1000
0010
1000
0101
1000
0010
1000
0101
1000
0010
1000
0101
1000
0010
0100
,  // measure 32
1001
0100
0001
0100
1000
0100
0001
0100
1001
0100
0010
0100
1001
0000
0000
0000
,  // measure 33
0110
0000
1001
0000
0011
0101
1010
1100
,  // measure 34
0001
0010
0001
0010
0001
0010
0100
0010
0100
0010
0100
1000
0100
1000
0100
1000
,  // measure 35
0001
1000
0001
1000
0001
0010
0100
1000
0100
0010
0100
1000
0001
0010
0001
0100
,  // measure 36
1001
0000
0100
0001
0010
1000
0100
0001
1000
0001
0010
0100
0001
0010
1000
0100
,  // measure 37
0001
0010
0100
1000
0001
0010
0100
1000
0001
0010
0100
1000
0001
0010
0100
1000
,  // measure 38
0010
1000
0100
0010
0001
1000
0100
0010
0001
1000
0100
0010
0001
1000
0100
0010
,  // measure 39
0101
0000
0001
0010
0001
1000
0100
0010
0100
1000
0001
0100
1000
0001
0100
0010
,  // measure 40
1000
0100
0010
0001
1000
0100
0010
0001
1000
0100
0010
0001
1000
0100
0010
0001
,  // measure 41
0100
0001
0010
0100
1000
0001
0010
0100
1000
0001
0010
0100
1000
0001
0010
0100
,  // measure 42
1010
0000
1000
0100
0010
1000
0001
0010
0100
1000
0010
1000
0001
0100
0001
1000
,  // measure 43
0010
0100
0001
1000
0010
0100
0001
1000
0010
0100
0001
1000
0010
0100
0001
1000
,  // measure 44
0001
0010
0001
0100
0001
0010
0100
1000
0010
0100
0010
1000
0010
0100
1000
0001
,  // measure 45
0110
1010
0110
0101
0110
1100
0011
0101
,  // measure 46
1001
0000
0010
0100
0001
0100
0010
0100
1000
0000
1001
0000
0110
0000
1001
0000
,  // measure 47
1100
0011
1100
0011
1100
0011
1100
0011
,  // measure 48
1010
0000
0001
0010
0100
1000
0100
0010
0001
0000
1000
0001
1100
0001
1000
0000
,  // measure 49
0101
1010
0101
1010
0101
1010
0101
1010
,  // measure 50
0011
0000
0100
0010
0001
1000
0100
0010
0100
0000
0110
0000
1001
0000
0110
0000
,  // measure 51
1100
1010
0101
0011
1010
1100
0101
0011
,  // measure 52
1001
0000
0001
0010
0100
0010
1000
0100
0010
0000
1001
0110
1001
0000
0010
0100
,  // measure 53
1010
0000
1100
0001
1010
0001
1000
0001
1010
0100
0010
0001
1100
0001
0010
0100
,  // measure 54
1001
0011
1001
1100
1001
0101
1001
1010
,  // measure 55
0110
0000
0001
1000
0010
1000
0100
1000
0010
0000
1001
0000
0110
0000
1001
0000
,  // measure 56
0101
0110
1100
0110
0011
0110
1010
0110
,  // measure 57
1001
0000
0010
0100
0001
0100
1000
0100
0010
0000
1100
0000
0110
0000
0011
0000
,  // measure 58
1010
1001
1100
1001
0101
1001
0011
1001
,  // measure 59
0110
0000
0001
0010
0100
1000
0100
0010
0001
0000
1100
0001
1010
0001
1100
0000
,  // measure 60
0001
1000
0001
1000
0001
1000
0001
1000
0010
0100
0010
0100
0010
0100
0010
0100
,  // measure 61
2001
3000
0110
0000
1200
0300
0011
0000
0120
0030
1001
0000
0102
0003
1010
0000
,  // measure 62
1001
0000
0000
0000
0000
0000
0000
0000
0001
0010
0100
1000
0010
0100
0001
1000
,  // measure 63
0021
0030
1100
0000
2010
3000
0101
0000
0102
0003
1010
0000
1200
0300
0011
0000
,  // measure 64
1001
0000
0000
0000
0000
0000
0000
0000
1000
0001
1000
0010
1000
0100
1000
0010
,  // measure 65
1002
0003
0110
0000
1020
0030
1001
0000
0210
0300
1001
0000
2100
3000
0011
0000
,  // measure 66
1001
0000
0000
0000
0000
0000
0000
0000
0001
0010
0100
1000
0100
0010
0100
0001
,  // measure 67
1100
0000
1010
0000
1100
0000
1010
0000
0011
1000
0101
1000
0011
1000
0101
1000
,  // measure 68
0101
0010
0001
0010
0001
0010
1000
0010
1000
0010
1000
0100
1000
0100
1000
0100
,  // measure 69
0001
0100
0001
0100
0001
0010
0100
1000
0010
0100
0001
0010
1000
0100
1000
0001
,  // measure 70
0110
0001
0100
0001
0010
1000
0010
0100
1000
0001
0010
0100
0010
0001
1000
0100
,  // measure 71
0001
0010
0100
1000
0001
0010
0100
1000
0001
0010
0100
1000
0001
0010
0100
1000
,  // measure 72
0010
1000
0100
0010
0001
1000
0100
0010
0001
1000
0100
0010
0001
0010
0100
1000
,  // measure 73
0011
1000
0100
1000
0001
0100
0010
0001
0100
0010
0100
1000
0001
1000
0010
0001
,  // measure 74
1000
0100
0010
0001
1000
0100
0010
0001
1000
0100
0010
0001
1000
0100
0010
0001
,  // measure 75
0100
0001
0010
0100
1000
0001
0010
0100
1000
0001
0010
0100
1000
0100
0010
0001
,  // measure 76
1100
0001
0010
0100
0001
0010
0001
1000
0100
0010
1000
0001
0100
0010
0100
0001
,  // measure 77
0010
0100
0001
1000
0010
0100
0001
1000
0010
0100
0001
1000
0010
0100
0001
1000
,  // measure 78
0001
0010
0001
0010
1000
0100
0010
0001
1000
0100
1000
0100
0001
0010
0100
1000
,  // measure 79
0001
0010
0100
0010
0100
0010
0001
0010
0100
1000
0100
0010
0001
0010
0100
0010
,  // measure 80
1000
0100
0010
0100
0010
0100
1000
0100
0010
0001
0010
0100
1000
0100
0010
0100
,  // measure 81
0010
0001
0100
0001
0010
0001
1000
0001
0100
0001
1000
0001
0010
0001
0100
0001
,  // measure 82
1000
0100
1000
0010
0001
1000
0001
0010
0100
0001
0100
1000
0010
0001
0010
0100
,  // measure 83
1001
0000
0001
1000
0011
1000
0001
1000
0101
1000
0001
1000
0011
1000
0001
0000
,  // measure 84
1010
0101
0011
1100
1010
0101
0011
1100
,  // measure 85
0010
0000
0100
0001
1100
0001
0100
0001
0110
0001
0100
0001
1100
0001
0100
0000
,  // measure 86
1001
0101
0011
0101
1001
1010
1100
1010
,  // measure 87
1001
0000
1000
0010
1001
0010
1000
0010
1100
0010
1000
0010
1001
0010
1000
0000
,  // measure 88
0011
0101
0110
1001
1100
1010
1001
0110
,  // measure 89
1001
0000
0001
0010
1000
0100
0001
0010
1001
0100
0001
0010
1000
0100
0001
0000
,  // measure 90
0001
0010
0100
0010
0001
0010
0100
0010
1000
0100
0010
0100
1000
0100
0010
0100
,  // measure 91
1010
0001
0010
0001
1000
0100
1000
0001
0100
0010
0001
0010
1000
0010
1000
0100
,  // measure 92
1001
0010
0100
1000
0001
0010
0100
1000
0001
0010
0100
1000
0001
0010
0100
1000
,  // measure 93
0011
1000
0100
0010
0001
1000
0100
0010
0001
1000
0100
0010
0001
0010
0100
1000
,  // measure 94
0101
0010
0100
1000
0001
0010
0001
0100
0001
0100
1000
0010
1000
0001
0010
0001
,  // measure 95
1000
0100
0010
0001
1000
0100
0010
0001
1000
0100
0010
0001
1000
0100
0010
0001
,  // measure 96
1000
0100
1000
0010
0001
0010
0100
1000
0001
0100
0001
0010
0001
1000
0010
1000
,  // measure 97
0001
0010
0100
1000
0001
0010
0100
1000
0010
0100
0001
1000
0010
0100
0001
1000
,  // measure 98
0110
0000
0001
1000
0011
1000
0001
1000
0101
0000
1001
0100
0010
0100
1001
0000
,  // measure 99
1100
0000
0001
0010
0101
1000
0100
0010
0101
0000
1100
0001
1000
0001
1100
0000
,  // measure 100
1001
0000
1000
0001
1100
0010
1000
0001
1100
0000
0110
0001
0100
1000
0110
0000
,  // measure 101
1001
0000
0010
0100
0011
0100
0010
0100
1010
0000
1001
0100
1000
0100
0011
0000
,  // measure 102
1000
0001
1000
0010
1000
0100
1000
0010
0001
1000
0001
0100
0001
0010
0001
0100
,  // measure 103
0001
1000
0001
0010
0100
1000
0100
0010
0001
1000
0010
0100
0001
1000
0010
0100
,  // measure 104
2002
0000
0000
0000
,  // measure 105
3003
0000
0000
0000
;

//---------------dance-single - ----------------
#NOTES:
     dance-single:
     :
     Hard:
     9:
     0.722,0.715,0.311,0.096,0.233,777.000,52.000,16.000,0.000,0.000:  // measure 1
0000
0000
0000
0000
,  // measure 2
0001
0000
1000
0000
0100
0000
0010
0000
0001
0000
0100
0000
0010
1000
0001
0100
,  // measure 3
0010
0100
1000
0100
0001
1000
0001
0000
,  // measure 4
1000
0100
1000
0010
0001
0100
0001
0000
,  // measure 5
0001
0010
0100
1000
0100
0010
0001
0000
,  // measure 6
0010
1000
0001
0100
0001
1000
0010
0000
,  // measure 7
1001
0010
0100
0001
1000
0010
0100
0000
,  // measure 8
0011
1000
0100
1000
0001
0010
0001
0000
,  // measure 9
1100
0001
0010
0100
1000
0010
0100
0000
,  // measure 10
0110
1000
0001
1000
0010
0100
0010
0000
,  // measure 11
0001
0010
0100
0010
0001
1000
0100
1000
,  // measure 12
0010
0100
0001
0010
0100
1000
0001
0100
,  // measure 13
0001
1000
0001
0100
0001
0010
0001
1000
,  // measure 14
0010
1000
0010
0100
0001
0100
0010
0100
,  // measure 15
0001
0001
0001
0001
1000
1000
1000
1000
,  // measure 16
0010
0010
0010
0010
0100
0100
0100
0100
,  // measure 17
0001
0100
1000
0100
0001
0100
1000
0100
,  // measure 18
0001
0000
1000
0000
0001
0000
1000
0000
0010
0000
0100
0000
0001
0100
0010
1000
,  // measure 19
0001
0000
1001
0000
,  // measure 20
0100
0010
0100
0010
,  // measure 21
1000
0100
0001
0100
1000
0010
0001
0010
,  // measure 22
1000
0001
1000
0000
0010
0000
0100
0000
0001
1000
0001
0000
0100
0000
0010
0000
,  // measure 23
1000
0100
1000
0000
0010
0000
0100
0000
0001
0010
0001
0000
1000
0000
0001
0000
,  // measure 24
1000
0000
0110
0000
,  // measure 25
0001
0010
0100
1000
,  // measure 26
0001
0010
0001
0010
0100
1000
0100
1000
,  // measure 27
0010
1000
0001
0000
0010
0000
0100
0000
1000
0001
0100
0000
0001
0000
1000
0000
,  // measure 28
0001
0010
0100
0000
1000
0000
0100
0000
1000
0100
0010
0000
0001
0000
0010
0000
,  // measure 29
0100
0000
1001
0000
,  // measure 30
0010
0100
0010
0100
,  // measure 31
1000
0001
1000
0001
1000
0001
1000
0001
,  // measure 32
0200
1300
0200
0301
0200
1300
0100
0000
,  // measure 33
1001
0000
0110
0000
1000
0010
0100
0001
,  // measure 34
1000
0000
0010
0000
0100
0000
0010
0000
1000
0001
1000
0000
0100
0000
0000
0000
,  // measure 35
0010
0000
0001
0000
1000
0000
0100
0000
0010
0100
0010
0000
0001
0000
0000
0000
,  // measure 36
1000
0000
0010
0000
1000
0000
0001
0000
0100
0001
0100
0000
0010
0000
0000
0000
,  // measure 37
0100
0000
1000
0000
0100
0000
0001
0000
0010
0001
0010
0000
0100
0000
0000
0000
,  // measure 38
1000
0000
0100
0000
0001
0000
0100
0000
0010
0100
0010
0000
0001
0000
0000
0000
,  // measure 39
1000
0000
0001
0000
0100
0000
0010
0000
1000
0010
1000
0000
0001
0000
0000
0000
,  // measure 40
0001
0000
1000
0000
0010
0000
1000
0000
0100
1000
0100
0000
0001
0000
0000
0000
,  // measure 41
0100
0000
0010
0000
1000
0000
0010
0000
0100
0001
0100
0000
0010
0000
0000
0000
,  // measure 42
1000
0000
0100
0000
0010
0000
0001
0000
1000
0001
1000
0000
0100
0000
0000
0000
,  // measure 43
0001
0000
0010
0000
0100
0000
1000
0000
0001
1000
0001
0000
0010
0000
0000
0000
,  // measure 44
0001
0000
0100
0000
0010
0000
0100
0000
0001
1000
0001
0000
0100
0000
0010
0000
,  // measure 45
1000
0001
1000
0001
1000
0001
0010
0001
,  // measure 46
0100
0000
1000
0001
1000
0000
0100
0000
0010
0000
0001
0000
0010
0000
0100
0000
,  // measure 47
1001
0110
1001
0110
,  // measure 48
0001
0000
1000
0100
1000
0000
0001
0000
0010
0000
0001
0000
0100
0000
0010
0000
,  // measure 49
1100
0011
1100
0011
,  // measure 50
1000
0000
0010
0100
0010
0000
1000
0000
0001
0000
0100
0000
0001
0000
0100
0000
,  // measure 51
1010
0101
1010
0101
,  // measure 52
0010
0000
0001
1000
0001
0000
0100
0000
0001
0000
0100
1000
0100
0000
0001
0000
,  // measure 53
0110
0000
1000
0010
1000
0000
0001
0000
0100
0000
0001
0000
1000
0000
0010
0000
,  // measure 54
1100
1010
0101
0011
,  // measure 55
1000
0000
0001
0100
0010
0000
0100
0000
1000
0000
0100
0000
0010
0000
1000
0000
,  // measure 56
0101
1010
1100
0011
,  // measure 57
0100
0000
0010
1000
0010
0000
1000
0000
0001
0000
0100
0000
0001
0000
0010
0000
,  // measure 58
1100
0011
1001
0110
,  // measure 59
0100
0000
0010
0100
0010
0000
0100
0000
1000
0000
0100
0001
0010
0000
0001
0000
,  // measure 60
1000
0100
0010
0001
1000
0100
0010
0001
,  // measure 61
2000
3001
0020
0130
2000
3001
0020
0130
,  // measure 62
1001
0000
0000
0000
0001
0010
0100
1000
,  // measure 63
0200
1300
0002
0013
0200
1300
0002
0013
,  // measure 64
1100
0000
0000
0000
1000
0100
0010
0001
,  // measure 65
2000
3010
0002
0013
2000
3100
0002
0103
,  // measure 66
1100
0000
0000
0000
0100
0010
1000
0001
,  // measure 67
1000
0100
1000
0100
0010
0001
0010
0001
,  // measure 68
0100
0010
1000
0010
0100
0001
1000
0001
,  // measure 69
1000
0000
0100
0000
0010
0000
0001
0000
1000
0001
1000
0000
0010
0000
0000
0000
,  // measure 70
0100
0001
1000
0100
0001
0100
0010
0001
,  // measure 71
1000
0000
0010
0000
0100
0000
0001
0000
1000
0100
0010
0000
0001
0000
0000
0000
,  // measure 72
0001
0010
0100
1000
0100
0010
0001
1000
,  // measure 73
0010
0000
0100
0000
0010
0000
0100
0000
0001
1000
0001
0000
0100
0000
0000
0000
,  // measure 74
0010
1000
0100
1000
0001
0100
0010
0100
,  // measure 75
0001
0000
1000
0000
0100
0000
0010
0000
0100
1000
0100
0000
0001
0000
0000
0000
,  // measure 76
0100
0001
0100
0001
1000
0100
1000
0100
,  // measure 77
0010
0000
0100
0000
0010
0000
0001
0000
1000
0001
0100
0000
0010
0000
0000
0000
,  // measure 78
1000
0000
0100
0000
0001
0000
0100
0000
1000
0001
1000
0000
0010
0000
0000
0000
,  // measure 79
1000
0100
1000
0100
1000
0100
0010
0001
,  // measure 80
0001
0010
0001
0010
0001
0010
0100
1000
,  // measure 81
0001
0010
0100
1000
0001
0010
0100
1000
,  // measure 82
0001
0010
0001
0000
0010
0000
0100
0000
1000
0100
1000
0000
0100
0000
0010
0000
,  // measure 83
0001
0000
1000
0001
1000
0000
0001
1000
0001
0000
0100
0010
0100
0010
0100
0000
,  // measure 84
1001
0110
1001
0110
,  // measure 85
1010
0000
0001
0100
0001
0000
0100
0001
0100
0000
0010
1000
0010
1000
0010
0000
,  // measure 86
0101
0110
1010
1001
,  // measure 87
0011
0000
1000
0100
1000
0000
0100
1000
0100
0000
0010
0001
0010
0001
0010
0000
,  // measure 88
1100
1001
0011
0110
,  // measure 89
1001
0000
0010
0100
0010
0000
0100
0010
0100
0000
1000
0001
1000
0001
1000
0000
,  // measure 90
0010
0100
0001
1000
0010
0100
0001
1000
,  // measure 91
0001
1000
0001
1000
,  // measure 92
0010
0000
0100
0010
0100
0000
0010
0100
0010
0000
1000
0001
1000
0001
1000
0000
,  // measure 93
0100
1000
0100
0001
,  // measure 94
0100
0000
0010
0001
0010
0000
0001
0010
0001
0000
1000
0000
0010
0000
1000
0000
,  // measure 95
0001
0010
0100
1000
,  // measure 96
0100
0000
1000
0010
1000
0000
0010
1000
0010
0000
0100
0001
0100
0000
0001
0000
,  // measure 97
1000
0100
0010
0001
0010
0100
1000
0100
,  // measure 98
0010
0000
0100
0000
1000
0000
0000
0000
0100
0000
0001
0100
0001
0100
0001
0000
,  // measure 99
1000
0000
0100
0000
0010
0000
0000
0000
0010
0000
0100
1000
0100
1000
0100
0000
,  // measure 100
1000
0000
0001
0000
0100
0000
0000
0000
0100
0000
0001
1000
0001
1000
0001
0000
,  // measure 101
0100
0000
0010
0000
0100
0000
0000
0000
0100
0000
0010
1000
0010
1000
0010
0000
,  // measure 102
1000
0100
0001
0100
1000
0010
0100
0010
,  // measure 103
0100
0000
0001
0000
1000
0000
0100
0000
0010
0001
1000
0100
0010
0001
1000
0100
,  // measure 104
0020
0000
0000
0000
,  // measure 105
0030
0000
0000
0000
;

//---------------dance-single - ----------------
#NOTES:
     dance-single:
     :
     Medium:
     7:
     0.585,0.529,0.287,0.096,0.000,621.000,48.000,16.000,0.000,0.000:  // measure 1
0000
0000
0000
0000
,  // measure 2
0001
0000
1000
0000
0100
0010
0100
0010
,  // measure 3
0001
0010
0001
0000
1000
0100
1000
0000
,  // measure 4
0010
1000
0010
0000
0100
0001
0100
0000
,  // measure 5
0001
1000
0100
0000
1000
0001
0010
0000
,  // measure 6
1000
0100
0010
0001
0010
0100
1000
0000
,  // measure 7
1001
0010
0100
0010
,  // measure 8
1100
0000
0010
0000
0001
0000
0010
0100
,  // measure 9
0010
1000
0001
1000
,  // measure 10
0011
0100
1000
0100
,  // measure 11
0001
1000
0001
0100
0001
0010
0001
0000
,  // measure 12
1000
0001
1000
0010
1000
0100
1000
0000
,  // measure 13
0010
1000
0010
0001
0010
0100
0010
0000
,  // measure 14
0100
0001
0100
1000
0100
0010
0100
0000
,  // measure 15
0001
1000
0010
0100
0001
1000
0010
0000
,  // measure 16
1000
0100
0001
0100
1000
0100
0001
0000
,  // measure 17
0001
0100
1000
1000
0010
0001
0001
0000
,  // measure 18
0010
0100
0010
0100
0001
1000
0001
1000
,  // measure 19
0010
0000
1001
0000
,  // measure 20
0100
0100
0100
0100
,  // measure 21
0001
0010
1000
0010
0001
0010
1000
0000
,  // measure 22
1000
0100
1000
0000
0001
0010
0001
0000
,  // measure 23
0001
0100
0010
1000
0100
0010
0001
0000
,  // measure 24
1000
0000
0011
0000
,  // measure 25
0010
0010
0010
0010
,  // measure 26
0001
1000
0001
0100
0001
0010
0001
0000
,  // measure 27
0010
1000
0100
0000
0100
0001
0010
0000
,  // measure 28
1000
0001
1000
0001
0100
0010
0100
0000
,  // measure 29
0010
0000
1001
0000
,  // measure 30
0001
1000
0001
1000
,  // measure 31
0010
0100
0010
0100
0010
0100
0010
0000
,  // measure 32
0001
1000
0001
1000
0001
1000
0001
0000
,  // measure 33
0010
0100
1001
0110
,  // measure 34
0001
0010
0001
0010
0100
1000
0100
0000
,  // measure 35
1000
0001
1000
0010
1000
0100
1000
0000
,  // measure 36
0100
0010
0001
0000
0010
0100
1000
0000
,  // measure 37
0001
1000
0100
1000
0001
0010
0001
0000
,  // measure 38
1000
0100
0010
0001
0010
0100
1000
0000
,  // measure 39
0001
1000
0010
1000
0001
0100
0001
0000
,  // measure 40
0010
0100
0010
0000
0100
0010
0100
0000
,  // measure 41
0001
1000
0001
0100
0010
1000
0001
0000
,  // measure 42
0001
1000
0100
0010
0100
1000
0001
0000
,  // measure 43
0010
0100
0001
1000
0010
0100
1000
0000
,  // measure 44
0001
0010
0100
1000
0001
0100
0010
1000
,  // measure 45
0010
1001
0100
1001
,  // measure 46
0100
0001
1000
0001
1000
0001
1000
0001
,  // measure 47
0100
1010
0001
1010
,  // measure 48
1000
0100
0010
0001
0010
0100
1000
0100
,  // measure 49
0010
0101
1000
0101
,  // measure 50
0001
1000
0001
0100
0010
1000
0010
0100
,  // measure 51
0001
0110
1000
0110
,  // measure 52
1000
0010
0100
0010
0001
0010
0100
0010
,  // measure 53
1000
0100
0001
0000
0001
0100
1000
0000
,  // measure 54
0010
1001
0100
1001
,  // measure 55
0001
1000
0100
0010
0001
0100
0010
0100
,  // measure 56
0001
1100
0010
1100
,  // measure 57
0010
0100
1000
0001
0010
0001
1000
0100
,  // measure 58
0010
1100
0001
0110
,  // measure 59
1000
0100
0001
0100
1000
0100
0001
0000
,  // measure 60
1000
0001
1000
0001
0100
0010
0100
0010
,  // measure 61
2000
3000
0020
0030
0200
0300
0002
0003
,  // measure 62
0020
0030
0100
0100
,  // measure 63
0002
0003
0020
0030
0200
0300
2000
3000
,  // measure 64
0002
0003
0100
0100
,  // measure 65
0020
0030
2000
3000
0002
0003
0200
0300
,  // measure 66
2000
3000
0001
1000
,  // measure 67
0001
0000
0010
0000
1000
0100
1000
0100
,  // measure 68
0001
0010
0100
1000
0010
0100
0001
0000
,  // measure 69
1000
0001
1000
0010
0100
0001
0100
0000
,  // measure 70
0010
0100
1000
0100
0010
0001
0010
0000
,  // measure 71
1000
0001
0100
0010
1000
0001
0010
0000
,  // measure 72
1000
0100
0001
0100
1000
0100
0001
0000
,  // measure 73
0010
0100
0010
0100
0001
1000
0001
0000
,  // measure 74
0100
0001
0010
0100
1000
0010
0100
0000
,  // measure 75
0001
1000
0001
0010
0100
1000
0100
0000
,  // measure 76
0010
1000
0010
0100
0001
0100
0010
0000
,  // measure 77
0001
1000
0010
1000
0100
0010
0001
0000
,  // measure 78
0001
0010
0001
1000
0100
0010
0001
0000
,  // measure 79
1000
0100
0010
0100
1000
0100
0010
0001
,  // measure 80
1000
0100
0010
0100
1000
0100
0010
0001
,  // measure 81
0100
0001
0010
0100
1000
0010
0100
0010
,  // measure 82
1001
0000
0110
0000
0010
0100
0010
0100
,  // measure 83
0001
0010
0100
0010
0001
1000
0001
0000
,  // measure 84
1001
0110
1001
0110
,  // measure 85
0001
0010
0100
0001
0100
1000
0100
0000
,  // measure 86
1100
0011
1100
0011
,  // measure 87
1000
0001
0010
0100
1000
0001
0100
0000
,  // measure 88
0101
1010
0101
1010
,  // measure 89
0001
1000
0001
0010
0100
1000
0100
0000
,  // measure 90
0010
0100
1000
0100
0010
0001
0010
0000
,  // measure 91
0011
0101
1010
1100
,  // measure 92
0001
0100
0001
1000
0001
0100
0001
0000
,  // measure 93
1010
0011
1100
0101
,  // measure 94
0100
0001
0010
0100
1000
0001
0100
0000
,  // measure 95
1100
0101
0011
1010
,  // measure 96
0001
1000
0001
0100
0010
0100
0010
0000
,  // measure 97
1000
0100
0010
0001
0001
0010
0100
1000
,  // measure 98
0010
0100
0010
0100
0010
1000
0001
0000
,  // measure 99
1000
0010
1000
0010
1000
0001
0100
0000
,  // measure 100
0001
0010
0001
0010
0001
1000
0100
0000
,  // measure 101
0001
0010
0100
1000
0100
0010
0001
0000
,  // measure 102
1000
0001
1000
0001
1000
0001
1000
0001
,  // measure 103
0100
0010
0100
0010
1000
0100
0010
0001
,  // measure 104
0200
0000
0000
0000
,  // measure 105
0300
0000
0000
0000
;

//---------------dance-single - ----------------
#NOTES:
     dance-single:
     :
     Easy:
     4:
     0.386,0.404,0.006,0.060,0.000,441.000,1.000,10.000,0.000,0.000:  // measure 1
0000
0000
0000
0000
,  // measure 2
0000
0000
0000
0000
,  // measure 3
1000
0000
1000
0000
,  // measure 4
0100
0000
0100
0000
,  // measure 5
0010
0000
0010
0000
,  // measure 6
0001
0001
0001
0000
,  // measure 7
0100
0010
0100
0000
,  // measure 8
0001
1000
0001
0000
,  // measure 9
1000
0100
0010
0000
,  // measure 10
0001
0010
0100
0000
,  // measure 11
1000
0001
0010
0100
,  // measure 12
0001
1000
0100
0010
,  // measure 13
0001
1000
0010
0100
,  // measure 14
0010
1000
0001
0100
,  // measure 15
0001
0001
1000
1000
,  // measure 16
0100
0100
0010
0010
,  // measure 17
1000
0100
0001
0100
,  // measure 18
1000
0001
1000
0001
,  // measure 19
0020
0000
0000
0000
,  // measure 20
0230
0000
0000
0000
,  // measure 21
0301
1000
0001
1000
,  // measure 22
0010
0010
0010
0010
,  // measure 23
0100
0100
0100
0100
,  // measure 24
2000
0000
0000
0000
,  // measure 25
3002
0000
0000
0000
,  // measure 26
0013
0100
0010
0100
,  // measure 27
1000
1000
1000
1000
,  // measure 28
0001
0001
0001
0001
,  // measure 29
0200
0000
0000
0000
,  // measure 30
0320
0000
0000
0000
,  // measure 31
0031
0010
0100
1000
,  // measure 32
0010
0000
0100
0000
0001
1000
0001
0000
,  // measure 33
0100
0100
0010
0010
,  // measure 34
0001
0000
1000
0000
0001
0100
1000
0000
,  // measure 35
0010
0000
0100
0000
0010
1000
0100
0000
,  // measure 36
0001
0000
0010
0000
1000
0100
1000
0000
,  // measure 37
0010
0000
1000
0000
0100
0001
0100
0000
,  // measure 38
0001
0000
1000
0000
0010
0100
0001
0000
,  // measure 39
0010
0000
0010
0000
0100
1000
0001
0000
,  // measure 40
0001
0000
1000
0000
0001
0010
0100
0000
,  // measure 41
0010
0000
0100
0000
1000
0001
1000
0000
,  // measure 42
0001
0000
0100
0000
1000
0010
0100
0000
,  // measure 43
0010
0000
0001
0000
0100
0010
1000
0000
,  // measure 44
0010
0000
0010
0000
0001
0100
0010
0000
,  // measure 45
1000
0001
1000
0000
0001
1000
0001
0000
,  // measure 46
0110
0010
0010
0010
,  // measure 47
1000
0001
1000
0001
,  // measure 48
1000
0000
0100
0000
0001
0010
0100
0000
,  // measure 49
0001
1000
0001
1000
,  // measure 50
0010
0000
1000
0000
0100
0001
0010
0000
,  // measure 51
0100
0010
0100
0010
,  // measure 52
1000
0000
0001
0000
0100
0010
0100
0000
,  // measure 53
0001
0000
0100
0000
1000
0100
0001
0000
,  // measure 54
0010
0010
0010
0010
,  // measure 55
0100
0000
0010
0000
0100
0001
0010
0000
,  // measure 56
1000
1000
1000
1000
,  // measure 57
0001
0000
1000
0000
0010
0100
1000
0000
,  // measure 58
0001
0001
0001
0001
,  // measure 59
0100
0000
0001
0000
1000
0010
1000
0000
,  // measure 60
0001
1000
0001
0000
0100
0010
0100
0000
,  // measure 61
0001
1000
0001
1000
,  // measure 62
0010
0000
0200
0000
,  // measure 63
0310
1000
0100
1000
,  // measure 64
0001
0000
0020
0000
,  // measure 65
1030
0100
0010
0001
,  // measure 66
0100
0000
2000
0000
,  // measure 67
3001
0000
0010
0000
1000
0100
0010
0001
,  // measure 68
0100
0000
0010
0000
1000
0001
1000
0000
,  // measure 69
0001
0010
0100
0000
1000
0100
0010
0000
,  // measure 70
0001
0000
0010
0000
0100
0010
0001
0000
,  // measure 71
0010
1000
0010
0000
0100
0001
0100
0000
,  // measure 72
0010
0000
1000
0000
0010
0100
1000
0000
,  // measure 73
0001
1000
0001
0000
0100
0001
0100
0000
,  // measure 74
0010
0000
1000
0000
0100
0001
0010
0000
,  // measure 75
0001
1000
0100
0000
1000
0001
0100
0000
,  // measure 76
0010
0000
0100
0000
0001
1000
0100
0000
,  // measure 77
0001
0010
0001
0000
1000
0100
1000
0000
,  // measure 78
0010
0000
0010
0000
1000
0100
0001
0100
,  // measure 79
1000
0000
1000
0000
1000
0100
0010
0001
,  // measure 80
1000
0000
1000
0000
1000
0100
0010
0001
,  // measure 81
1000
0100
1000
0000
0001
0010
0001
0000
,  // measure 82
0100
0000
0100
0000
0010
0100
0010
0100
,  // measure 83
0010
0000
0100
0000
0100
0010
0100
0000
,  // measure 84
0001
1000
0001
1000
,  // measure 85
0010
0000
1000
0000
0100
0001
0100
0000
,  // measure 86
0010
1000
0010
1000
,  // measure 87
0100
0000
0010
0000
1000
0100
0010
0000
,  // measure 88
0001
0010
0100
1000
,  // measure 89
0010
0000
0010
0000
1000
0100
0001
0000
,  // measure 90
1000
0001
1000
0000
0001
1000
0001
0000
,  // measure 91
1000
0001
1000
0001
,  // measure 92
0100
0000
0100
0000
0010
0100
0010
0000
,  // measure 93
0001
0010
0100
1000
,  // measure 94
0001
0000
0010
0000
1000
0010
1000
0000
,  // measure 95
0100
0100
0001
0100
,  // measure 96
1000
0000
0100
0000
0001
0010
0001
0000
,  // measure 97
1000
0100
0010
0000
0100
0010
0001
0000
,  // measure 98
0010
0000
0010
0000
1000
0001
1000
0000
,  // measure 99
0100
0000
0100
0000
0001
1000
0001
0000
,  // measure 100
1000
0000
0001
0000
0100
0010
0100
0010
,  // measure 101
0100
0000
0001
0000
1000
0010
1000
0000
,  // measure 102
0001
0000
0001
0000
1000
0100
1000
0000
,  // measure 103
0001
0010
0100
1000
0001
0010
0100
1000
,  // measure 104
0020
0000
0000
0000
,  // measure 105
0030
0000
0000
0000
;
